94i論壇

 找回密碼
 立即註冊94i會員
查看: 127|回復: 0

[其它] 摇摆狂潮 Swing.Kids.1993.720p.WEB-DL.DD5.1.H264-FGT 1.77GB[MEGA@MegaDownl...

[複製鏈接]
秘密客
秘密客  發表於 2021-7-5 01:52:17 |閱讀模式
電影年份

其他

電影國家

歐美

電影類型

愛情 喜劇 

立刻加入94i論壇會員,即可馬上觀看熱門強檔電影喔..

您需要 登錄 才可以下載或查看,沒有帳號?立即註冊94i會員

x
摇摆狂潮 Swing.Kids.1993.720p.WEB-DL.DD5.1.H264-FGT 1.77GB[MEGA@MegaDownloader@1.77GB]  


                               
登錄/註冊後可看大圖

【檔案名稱】: 摇摆狂潮 Swing.Kids.1993.720p.WEB-DL.DD5.1.H264-FGT 1.77GB[MEGA@MegaDownloader@1.77GB]  
【檔案大小】:1.77GB(含5%復原紀錄)
【語言字幕】:英文
【分享空間】:MEGA
【下載方式】:IE
【解壓方式】:WinRAR
【分享期限】:補分後原檔刪除,檔案若有問題請於補分前提出。
【預告觀賞】:



                               
登錄/註冊後可看大圖


                               
登錄/註冊後可看大圖


                               
登錄/註冊後可看大圖


                               
登錄/註冊後可看大圖


                               
登錄/註冊後可看大圖


【解壓密碼】:
FASTPIJ332D53FFFNJG_by_FastZone.ORG&D52B162B8B_by_OKFUN.ORG&FDZT544L9Z4NO_by_FDZone.ORG&94i.in/?fromuid=12124


===回覆格式===
===============
檔案存在:YES/NO(煩請列出缺檔編號)
解壓成功:YES/NO
===============
看完請幫忙回覆,您的回覆就是我繼續發帖的動力!
免責聲明:
1、僅供網路頻寬測試及相關程式研究教學用途,下載者不得任意以任何形式公開播送或公開傳輸,切勿用於商業用途。
2、倘使內容涉及侵權,請立即聯絡本人。本人將立刻刪除,並向所有持版權者致上最深的歉意!
3、僅供個人或家庭為非營利之目的;若觸犯法規,本人不對其內容負上任何責任!
4、對於內容滿意者,請購買正版並尊重智慧財產權。

【劇情簡介】:



译  名 摇摆狂潮
片  名 Swing Kids
年  代 1993
国  家 美国
类  别 剧情/音乐
语  言 英语
上映日期 1993-03-05(美国)
片  长 112分钟
导  演 托马斯·卡特 Thomas Carter
主  演 罗伯特·肖恩·莱纳德 Robert Sean Leonard
      克里斯蒂安·贝尔 Christian Bale
      弗兰克·威利 Frank Whaley
      芭芭拉·赫希 Barbara Hershey
      Tushka Bergen
      David Tom
      朱莉亚·斯坦伯格 Julia Stemberger
      杰西·巴托克 Jayce Bartok
      诺亚·怀尔 Noah Wyle
      Johan Leysen
      Douglas Roberts
      马丁·克鲁勒斯 Martin Clunes
      杰西卡·海因斯 Jessica Hynes
      Carl Brincat
      Mary Fogarty


简  介


  在三十年代,三名纯真的德国青少年热衷英美流行文化,尤其迷上了摇摆节奏的大乐队演出,不料却受到纳粹组织的迫害,因为乐队中聘用了太多黑人!本片企图用一个特定时空背景的故事来反映年轻人不畏强权追求自由意志的心声。然而导演托马斯.卡特的处理手法不够豪放,几位男主角克里斯琴.贝尔、弗兰克.惠利等的演出也比较温文,故并未将这个反映勇气的故事爆发出令人激动的火花。倒是充满时代风味的美术设计令人眼亮。老牌影后芭芭拉.赫尔希在片中出演重要配角。


Video
ID                                       : 1
Format                                   : AVC
Format/Info                              : Advanced Video Codec
Format profile                           : High@L3.1
Format settings, CABAC                   : No
Format settings, ReFrames                : 2 frames
Codec ID                                 : V_MPEG4/ISO/AVC
Duration                                 : 1h 53mn
Bit rate                                 : 3 990 Kbps
Width                                    : 1 278 pixels
Height                                   : 720 pixels
Display aspect ratio                     : 16:9
Frame rate mode                          : Constant
Frame rate                               : 23.976 fps
Color space                              : YUV
Chroma subsampling                       : 4:2:0
Bit depth                                : 8 bits
Scan type                                : Progressive
Bits/(Pixel*Frame)                       : 0.181
Stream size                              : 3.17 GiB (89%)
Title                                    : Swing.Kids.1993.720p.WEB-DL.DD5.1.H264-FGT
Language                                 : English
Default                                  : Yes
Forced                                   : No
Color range                              : Limited
Color primaries                          : BT.709
Transfer characteristics                 : BT.709
Matrix coefficients                      : BT.709

Audio
ID                                       : 2
Format                                   : AC-3
Format/Info                              : Audio Coding 3
Mode extension                           : CM (complete main)
Format settings, Endianness              : Big
Codec ID                                 : A_AC3
Duration                                 : 1h 53mn
Bit rate mode                            : Constant
Bit rate                                 : 384 Kbps
Channel(s)                               : 6 channels
Channel positions                        : Front: L C R, Side: L R, LFE
Sampling rate                            : 48.0 KHz
Bit depth                                : 16 bits
Compression mode                         : Lossy
Stream size                              : 312 MiB (9%)
Title                                    : Swing.Kids.1993.720p.WEB-DL.DD5.1.H264-FGT
Language                                 : English
Default                                  : Yes
Forced                                   : No

Text
ID                                       : 3
Format                                   : UTF-8
Codec ID                                 : S_TEXT/UTF8
Codec ID/Info                            : UTF-8 Plain Text
Language                                 : English
Default                                  : Yes
Forced                                   : No

Menu
00:00:00.000                             : en:Opening Credits/Hamburg Germany, 1939
00:11:32.000                             : en:An Official Visit
00:20:16.000                             : en:The Record Shop
00:23:52.000                             : en:The Cafe Bismarck
00:30:04.000                             : en:A Serious Mistake
00:36:59.000                             : en:Joining The H.J.
00:51:15.000                             : en:Raids, Repercussions and Propaganda
00:58:11.000                             : en:Conflicted
01:08:44.000                             : en:Open Defiance and Broken Friendships
01:19:31.000                             : en:Family Conflict and Unity
01:30:01.000                             : en:Ashes to Ashes
01:38:26.000                             : en:\"It Don\'t Mean a Thing...\"/End Credits

感謝分享.txt

310 Bytes, 下載次數: 3, 下載積分: 影幣 -1

售價: 1 影幣  [記錄]

您需要登錄後才可以回帖 登錄 | 立即註冊94i會員

本版積分規則

小黑屋|94i論壇 |網站地圖

GMT+8, 2021-7-26 21:10 , Processed in 0.024186 second(s), 15 queries , Gzip On, MemCache On.

Powered by Discuz!

© 2017-2021 94i.in

快速回復 返回頂部 返回列表